Форум 3DNews
Вернуться   Форум 3DNews > Техника > Цифровая и аналоговая фото/видео техника > Видеокамеры и обработка видео

Ответ Создать новую тему
Опции темы Опции просмотра
Непрочитано 09.03.2010, 13:29   [включить плавающее окно]   #1
TREZOR
Мужской Новенький
Автор темы
 
Регистрация: 15.10.2008
Адрес: Санкт-Петербург
Question Как склеить видео с видеокамеры???

Видеокамера Sony HDR XR150E!
Если есть знатоки, подскажите пожалуйста, у меня видеокамера СОНИ с HD видео, под спойлером медиа-инфо по файлам которые получаются с камеры, мне нужно их в один сделать а то она там режет сама видео когда больше двух гигов получается, да и вобще...

Код:
General
ID                               : 0
Complete name                    : D:\Мои документы\Наша Камера\04.03.2010\20100304121838.m2ts
Format                           : BDAV
Format/Info                      : Blu-ray Video
File size                        : 166 MiB
Duration                         : 1mn 21s
Overall bit rate                 : 17.2 Mbps
Maximum Overall bit rate         : 18.0 Mbps

Video
ID                               : 4113 (0x1011)
Menu ID                          : 1 (0x1)
Format                           : AVC
Format/Info                      : Advanced Video Codec
Format profile                   : High@L4.0
Format settings, CABAC           : Yes
Format settings, ReFrames        : 2 frames
Duration                         : 1mn 20s
Bit rate                         : 16.2 Mbps
Width                            : 1 920 pixels
Height                           : 1 080 pixels
Display aspect ratio             : 16:9
Frame rate                       : 25.000 fps
Resolution                       : 8 bits
Colorimetry                      : 4:2:0
Scan type                        : Interlaced
Scan order                       : Top Field First
Bits/(Pixel*Frame)               : 0.313
Stream size                      : 156 MiB (94%)

Audio
ID                               : 4352 (0x1100)
Menu ID                          : 1 (0x1)
Format                           : AC-3
Format/Info                      : Audio Coding 3
Duration                         : 1mn 21s
Bit rate mode                    : Constant
Bit rate                         : 256 Kbps
Channel(s)                       : 2 channels
Channel positions                : L R
Sampling rate                    : 48.0 KHz
Video delay                      : -80ms
Stream size                      : 2.47 MiB (1%)

Text
ID                               : 4608 (0x1200)
Menu ID                          : 1 (0x1)
Format                           : PGS
Duration                         : 1mn 20s
Video delay                      : -80ms
Как склеивать такие файлы?????
TREZOR вне форума  
Ответить с цитированием
Непрочитано 11.03.2010, 18:34   [включить плавающее окно]   #2
Sl@sh/
Мужской Заслуженный
 
Аватар для Sl@sh/
 
Регистрация: 30.07.2003
Адрес: 3DNClan,Israel
Как простой выход,програму tsMuxer,скачать можно здесь: http://www.videohelp.com/tools/tsMuxeR
Но говорят,в ней иногда десинхронизируется звук...не знаю,пользовал.
Можно так же использовать любой,понимающий и работающий с AVCHD видеоредактор,например:Corel(бывшая Ulead) Video Studio pro x3 либо Pinnacle studio 14...о это будет посложнее.
Sl@sh/ вне форума  
Конфигурация ПК
Ответить с цитированием
Непрочитано 14.03.2010, 11:44   [включить плавающее окно]   #3
TREZOR
Мужской Новенький
Автор темы
 
Регистрация: 15.10.2008
Адрес: Санкт-Петербург
Спасибо попробуем!
TREZOR вне форума  
Ответить с цитированием
Ответ Создать новую тему

Опции темы
Опции просмотра

Ваши права в разделе
Вы не можете создавать новые темы
Вы не можете отвечать в темах
Вы не можете прикреплять вложения
Вы не можете редактировать свои сообщения

BB коды Вкл.
Смайлы Вкл.
[IMG] код Вкл.
HTML код Выкл.

Быстрый переход


Текущее время: 08:04. Часовой пояс GMT +3.


Powered by vBulletin® Version 3.8.4
Copyright ©2000 - 2019, Jelsoft Enterprises Ltd. Перевод: zCarot
Copyright © 2000-2017 3DNews. All Rights Reserved.
Администрация 3DNews требует соблюдения на форуме правил и законов РФ
Серверы размещены в Hostkey